<?xml version="1.0" standalone="no"?>
<!DOCTYPE svg PUBLIC "-//W3C//DTD SVG 1.1//EN" "http://www.w3.org/Graphics/SVG/1.1/DTD/svg11.dtd" >
<svg>
<metadata>
Created by FontForge 20090914 at Wed Sep 11 23:57:51 2013
 By www-data
Slava Meskhi, 1996
</metadata>
<defs>
<font id="GeoArachveulebriviThin" horiz-adv-x="2265" >
  <font-face 
    font-family="Geo Arachveulebrivi Thin"
    font-weight="400"
    font-stretch="normal"
    units-per-em="4096"
    panose-1="2 11 114 0 0 0 0 0 0 0"
    ascent="3276"
    descent="-820"
    x-height="1507"
    cap-height="2949"
    bbox="-135 -1286 4473 3129"
    underline-thickness="50"
    underline-position="-75"
    unicode-range="U+0020-U+007E"
  />
<missing-glyph horiz-adv-x="2048" 
d="M256 0v2949h1536v-2949h-1536zM512 256h1024v2437h-1024v-2437z" />
    <glyph glyph-name=".notdef" horiz-adv-x="2048" 
d="M256 0v2949h1536v-2949h-1536zM512 256h1024v2437h-1024v-2437z" />
    <glyph glyph-name="space" unicode=" " horiz-adv-x="1229" 
 />
    <glyph glyph-name="exclam" unicode="!" horiz-adv-x="1470" 
d="M618 700l-40 2249h315l-41 -2249h-234zM578 0v340h315v-340h-315z" />
    <glyph glyph-name="quotedbl" unicode="&#x22;" horiz-adv-x="1102" 
d="M901 2867v-1106h-172v1106h172zM373 2867v-1106h-172v1106h172z" />
    <glyph glyph-name="numbersign" unicode="#" horiz-adv-x="4645" 
d="M3764 483c-128 0 -246.667 35.668 -356 107.001s-192.666 162.666 -250 273.999c-60 116 -90 239 -90 369s30 253 90 369c58 112 141.333 203.333 250 274s227.334 106 356 106c98.667 0 191.667 -20.333 279 -61c173.334 -80.667 296 -215.667 368 -405
c33.334 -88 50 -182.333 50 -283c0 -97.333 -16.666 -190.333 -50 -279s-82.5 -169 -147.5 -241s-139.834 -128 -224.5 -168c-88 -41.333 -179.667 -62 -275 -62zM4473 184.001v-143h-1401v143h1401zM434 -81.999v2949h295l1626 -2580v2580h250v-2949h-324l-1597 2540v-2540
h-250zM3756 688.001c75.333 0 142.333 13.6699 201 41.0029c54 25.333 107 66.333 159 123c48.666 53.333 84.333 110.666 107 171.999c24.666 66.667 37 135 37 205c0 144 -48 269.667 -144 377c-48 53.333 -99.667 92.666 -155 117.999c-60 27.333 -128.333 41 -205 41
c-90 0 -174.667 -25.667 -254 -77c-81.333 -52.667 -141.333 -117 -180 -193c-44 -86.667 -66 -175.334 -66 -266.001c0 -202 82 -356.333 246 -463c80 -52 164.667 -78 254 -78z" />
    <glyph glyph-name="dollar" unicode="$" 
d="M1204 1294v-1081c428.667 45.333 643 228.333 643 549c0 124 -50.333 227.667 -151 311c-96.667 80 -260.667 153.667 -492 221zM434 745l0.00195312 -7.99902c0 -162 50.667 -287.667 152 -377c98.667 -87.333 248.667 -137.666 450 -150.999v1134
c-294.667 81.333 -504.834 182.833 -630.501 304.5s-188.5 282.5 -188.5 482.5c0 204 73.667 370.667 221 500c145.333 128 344.666 203 597.999 225v270h168v-266c552 -27.333 833.333 -244.333 844 -651h-246c-26 268 -225.333 412.667 -598 434v-1086
c340 -92 576.333 -198.333 709 -319c130.667 -118.667 196 -281 196 -487c0 -222.667 -79 -400.334 -237 -533.001c-160 -134 -382.667 -207.667 -668 -221v-291h-168v287c-279.333 10.667 -496.333 81.667 -651 213c-152.667 129.333 -229 306.666 -229 531.999v8h278z
M1036 1610v1028c-172.667 -14 -308.667 -65.667 -408 -155s-149 -203 -149 -341c0 -129.333 43.667 -235.666 131 -318.999c85.333 -81.333 227.333 -152.333 426 -213z" />
    <glyph glyph-name="percent" unicode="%" horiz-adv-x="3998" 
d="M2605 733c0 -180 37 -323.333 111 -430c72 -104 171.667 -156 299 -156c129.333 0 230.333 52 303 156c70.667 101.333 106 244.666 106 429.999c0 159.333 -28 289.333 -84 390c-70.667 128 -179 192 -325 192c-126 0 -225.833 -52.167 -299.5 -156.5
s-110.5 -246.166 -110.5 -425.499zM2372 729c0 214.667 52.333 393.667 157 537c117.333 160.667 279.333 241 486 241c192.667 0 348 -70.5 466 -211.5s177 -329.833 177 -566.5c0 -214.667 -52.333 -393.667 -157 -537c-116.667 -160.667 -278.667 -241 -486 -241
c-188.667 0 -343 72.333 -463 217s-180 331.667 -180 561zM2687 2900h225l-1601 -2949h-226zM573 2126c0 -180 37.001 -321.999 111.001 -425.999s173.667 -156 299 -156c126 0 225.833 52.167 299.5 156.5s110.5 246.166 110.5 425.499c0 180 -37 323.333 -111 430
c-72 104 -171.667 156 -299 156c-126.667 0 -226.334 -52 -299.001 -156c-74 -106 -111 -249.333 -111 -430zM340.001 2126c0 233.333 59 420.667 177 562s273.333 212 466 212c208.667 0 371 -79.333 487 -238c104 -141.333 156 -320 156 -536
c0 -214.667 -52.333 -393.667 -157 -537c-116.667 -160.667 -278.667 -241 -486 -241s-369.333 80.333 -486 241c-104.667 143.333 -157 322.333 -157 537z" />
    <glyph glyph-name="ampersand" unicode="&#x26;" horiz-adv-x="2843" 
d="M1106 1729c159.333 64 285.001 148.333 377.001 253c76 86 114 195.333 114 328c0 106 -43.667 204.333 -131 295c-84.667 87.333 -183 131 -295 131c-122.667 0 -226.334 -43.667 -311.001 -131c-82 -84 -123 -190.333 -123 -319c0 -91.333 27.333 -179 82 -263
c57.333 -88 153 -186 287 -294zM1802 721l-819 769.999c-148.667 -73.333 -258 -160.666 -328 -261.999c-92.667 -134.667 -139 -268.667 -139 -402c0 -183.333 60 -339 180 -467c102 -108.667 246.667 -163 434 -163c135.333 0 258.333 43.667 369 131
c100 78.667 201 209.667 303 393zM1987 552.999c-187.333 -406.667 -481.001 -610.001 -881.001 -610.001c-233.333 0 -433 85 -599 255s-249 377 -249 621c0 171.333 50.667 334 152 488s235 268.667 401 344c-124 110.667 -211.333 214.334 -262 311.001
c-49.333 94.667 -74 201 -74 319c0 186 69.667 347.333 209 484c136.667 134 304.667 201 504 201c182.667 0 340.334 -68.333 473.001 -205s199 -296.667 199 -480c0 -314.667 -194 -554.667 -582 -720l623 -570l368 946h279l-463 -1126l651 -598l-156 -197z" />
    <glyph glyph-name="quotesingle" unicode="'" horiz-adv-x="569" 
d="M373 2867v-1106h-172v1106h172z" />
    <glyph glyph-name="parenleft" unicode="(" horiz-adv-x="1126" 
d="M631 -549c-151.333 366 -267.333 704.669 -348 1016c-79.333 307.333 -119 570.666 -119 789.999c0 391.333 154.333 970.333 463 1737h176c-246 -716 -369 -1296.33 -369 -1741c0 -234 30 -496 90 -786s154.333 -628.667 283 -1016h-176z" />
    <glyph glyph-name="parenright" unicode=")" horiz-adv-x="1126" 
d="M496 2994c161.333 -387.333 280 -727.333 356 -1020c76.667 -295.333 115 -557.333 115 -786c0 -382.667 -155.667 -961.667 -467 -1737h-176c245.333 714 368 1294.33 368 1741c0 468 -124.333 1068.67 -373 1802h177z" />
    <glyph glyph-name="asterisk" unicode="*" horiz-adv-x="2126" 
d="M1335 2994l205 -115l-356 -524l631 49v-233l-631 45l356 -520l-205 -119l-274 569l-275 -569l-200 119l356 520l-631 -45v233l631 -49l-356 524l200 115l275 -565z" />
    <glyph glyph-name="plus" unicode="+" horiz-adv-x="3412" 
d="M1786 2441v-1138h1118v-164h-1118v-1139h-160v1139h-1118v164h1118v1138h160z" />
    <glyph glyph-name="comma" unicode="," horiz-adv-x="1135" 
d="M324 -418l155 754h328l-258 -754h-225z" />
    <glyph glyph-name="hyphen" unicode="-" horiz-adv-x="1139" 
d="M61 913v230h1012v-230h-1012z" />
    <glyph glyph-name="hyphen" unicode="&#x2010;" horiz-adv-x="1139" 
d="M61 913v230h1012v-230h-1012z" />
    <glyph glyph-name="period" unicode="." horiz-adv-x="1135" 
d="M406 0v356h319v-356h-319z" />
    <glyph glyph-name="slash" unicode="/" horiz-adv-x="1139" 
d="M25 -283l1040 3273h205l-1041 -3273h-204z" />
    <glyph glyph-name="zero" unicode="0" 
d="M475 1425c0 -420.667 54.667 -734.667 164 -942c108 -204.667 273.333 -307 496 -307c439.333 0 659 416.333 659 1249c0 833.333 -219.667 1250 -659 1250c-222.667 0 -388 -102.667 -496 -308c-109.333 -207.333 -164 -521.333 -164 -942zM201 1425
c0 488.667 77.666 856 232.999 1102c156.667 248.667 390.334 373 701.001 373c310 0 543.333 -124.333 700 -373c155.333 -246 233 -613.333 233 -1102c0 -982.667 -311 -1474 -933 -1474c-622.667 0 -934 491.333 -934 1474z" />
    <glyph glyph-name="one" unicode="1" 
d="M1143 0v2556c-116.667 -96 -231.334 -182 -344.001 -258c-109.333 -74 -203.666 -127.333 -282.999 -160v258c97.333 47.333 201 110.333 311 189c108 77.333 216 167.333 324 270h250v-2855h-258z" />
    <glyph glyph-name="two" unicode="2" 
d="M221 0l-0.00195312 295c969.333 852.667 1454 1471 1454 1855c0 157.333 -50.167 284.166 -150.5 380.5c-100.333 96.333 -233.166 144.5 -398.499 144.5c-170 0 -307.333 -51.833 -412 -155.5s-159.667 -244.5 -165 -422.5h-311c8 254.667 93.667 454 257 598
c157.333 139.333 365 209 623 209c260.667 0 468.5 -65.833 623.5 -197.5s232.5 -307.5 232.5 -527.5c0 -285.333 -180.667 -638.333 -542 -1059c-179.333 -208.667 -469.666 -496 -870.999 -862h1454v-258h-1794z" />
    <glyph glyph-name="three" unicode="3" 
d="M426 750c8 -176.667 70.501 -314.499 187.501 -413.499s275.833 -148.5 476.5 -148.5c211.333 0 379.5 53.667 504.5 161s187.5 250.333 187.5 429c0 204 -74.667 356.333 -224 457c-128 86 -299.333 129 -514 129h-61c-13.333 0 -27 -1.33301 -41 -4v225h45
c22 -2.66699 37 -4 45 -4c205.333 0 369.666 40.667 492.999 122c146.667 96 220 241 220 435c0 165.333 -59.833 297.5 -179.5 396.5s-279.834 148.5 -480.501 148.5c-187.333 0 -334.666 -46.333 -441.999 -139c-109.333 -94 -172 -229.333 -188 -406h-267
c14 228 104 412 270 552s379.333 210 640 210c271.333 0 492 -72 662 -216s255 -331.333 255 -562c0 -167.333 -50.167 -305.333 -150.5 -414s-250.833 -186.334 -451.5 -233.001c428.667 -94.667 643 -335 643 -721c0 -236.667 -89 -429.667 -267 -579s-411 -224 -699 -224
c-268.667 0 -487 65 -655 195c-182.667 142 -280 343.333 -292 604h283z" />
    <glyph glyph-name="four" unicode="4" 
d="M1450 881v1732l-1122 -1732h1122zM1450 0v655h-1348v287l1250 1913h368v-1974h439v-226h-439v-655h-270z" />
    <glyph glyph-name="five" unicode="5" 
d="M512 692c19.333 -168 81.168 -296.665 185.501 -385.998s245.833 -134 424.5 -134c212 0 378.667 67 500 201c120 132 180 313.667 180 545c0 224.667 -57.333 402 -172 532c-113.333 128 -269 192 -467 192c-152 0 -280.667 -38.333 -386 -115
s-181.333 -188.334 -228 -335.001h-262l57 1663h1577v-221h-1319l-41 -1078c172 199.333 390.667 299 656 299c270 0 481.333 -93.333 634 -280c142 -173.333 213 -398 213 -674c0 -296 -85 -528.333 -255 -697s-404.333 -253 -703 -253
c-268.667 0 -481.334 66.667 -638.001 200s-235 313.666 -235 540.999h279z" />
    <glyph glyph-name="six" unicode="6" 
d="M516 877c0 -210.667 58.333 -378.666 175 -503.999c120 -128.667 284.333 -193 493 -193c200.667 0 357.667 67.667 471 203c106.667 127.333 160 293.333 160 498c0 214 -49.333 383.667 -148 509c-108.667 138 -267 207 -475 207
c-205.333 0 -369.333 -65.333 -492 -196s-184 -305.334 -184 -524.001zM459 1360c72.667 150.667 176.669 266.835 312.002 348.502s292 122.5 470 122.5c265.333 0 476.666 -92.667 633.999 -278c148 -174.667 222 -397.334 222 -668.001
c0 -293.333 -84 -522.333 -252 -687s-399.333 -247 -694 -247c-644.667 0 -967 464 -967 1392c0 1035.33 338.667 1553 1016 1553c242.667 0 440 -60.333 592 -181c165.333 -131.333 249.333 -315.333 252 -552h-279c-13.333 159.333 -68.833 281.666 -166.5 366.999
s-231.834 128 -402.501 128c-476 0 -721.667 -432.667 -737 -1298z" />
    <glyph glyph-name="seven" unicode="7" 
d="M594 0l1126 2609h-1540v246h1794v-283l-1069 -2572h-311z" />
    <glyph glyph-name="eight" unicode="8" 
d="M803 1479c-185.333 37.333 -330.002 113.667 -434.002 229s-156 256 -156 422c0 250.667 95 446 285 586c170 125.333 385 188 645 188c272.667 0 492.334 -71 659.001 -213s250 -329 250 -561c0 -167.333 -52.333 -308.333 -157 -423s-249 -190.667 -433 -228
c206.667 -47.333 364.834 -134.5 474.501 -261.5s164.5 -287.167 164.5 -480.5c0 -255.333 -100.333 -454.333 -301 -597c-177.333 -126 -399 -189 -665 -189c-267.333 0 -490 62.667 -668 188c-202 142 -303 341.333 -303 598c0 190 56 350 168 480
c110.667 128 267.667 215.333 471 262zM466.998 2142c0 -168 59.999 -301.668 179.999 -401.001c122 -101.333 284.667 -152 488 -152c206.667 0 368.834 49.167 486.501 147.5s176.5 233.5 176.5 405.5c0 176.667 -68.333 314.334 -205 413.001
c-121.333 88 -274 132 -458 132c-198 0 -358.833 -50.167 -482.5 -150.5s-185.5 -231.833 -185.5 -394.5zM429.997 778c-1.33301 -178.667 62.999 -323.333 192.999 -434c128 -109.333 297 -164 507 -164c200.667 0 365 49.333 493 148c141.333 108.667 212 260 212 454
c0 190.667 -72 339 -216 445c-128 94 -291 141 -489 141c-210.667 0 -379.667 -53.333 -507 -160s-191.666 -250 -192.999 -430z" />
    <glyph glyph-name="nine" unicode="9" 
d="M418 1982c0 -200.667 55.666 -361.333 166.999 -482s260.333 -181 447 -181c206.667 0 374.334 59.333 503.001 178c132 122 198 285.333 198 490c0 200 -61.667 363.667 -185 491c-122 125.333 -280.333 188 -475 188c-195.333 0 -354 -65.667 -476 -197
c-119.333 -128 -179 -290.333 -179 -487zM1782 1524c-61.333 -133.333 -159.334 -238.331 -294.001 -314.998s-286.667 -115 -456 -115c-264 0 -476 80 -636 240s-240 372 -240 636c0 280 84.333 505 253 675s390 255 664 255c338.667 0 588.5 -114.333 749.5 -343
s241.5 -585.334 241.5 -1070c0 -514.667 -82.833 -899.334 -248.5 -1154s-415.834 -382 -750.501 -382c-264 0 -478.167 66.833 -642.5 200.5s-249.166 311.167 -254.499 532.5h274c14.667 -168 80.334 -297 197.001 -387c108 -83.333 248.667 -125 422 -125
c483.333 0 725 402.667 725 1208v70c-2.66699 65.333 -4 90 -4 74z" />
    <glyph glyph-name="colon" unicode=":" horiz-adv-x="1470" 
d="M578 1700v356h315v-356h-315zM578 0v356h315v-356h-315z" />
    <glyph glyph-name="semicolon" unicode=";" horiz-adv-x="1470" 
d="M578 1700v356h315v-356h-315zM438 -418l156 754h328l-258 -754h-226z" />
    <glyph glyph-name="less" unicode="&#x3c;" horiz-adv-x="3412" 
d="M2884 2068l-2089 -847l2089 -848v-176l-2356 962v123l2356 967v-181z" />
    <glyph glyph-name="equal" unicode="=" horiz-adv-x="3412" 
d="M2904 938v-164h-2396v164h2396zM2904 1663v-160h-2396v160h2396z" />
    <glyph glyph-name="greater" unicode="&#x3e;" horiz-adv-x="3412" 
d="M2884 1282v-123l-2356 -962v176l2089 848l-2089 847v181z" />
    <glyph glyph-name="question" unicode="?" horiz-adv-x="1991" 
d="M643 0v340h320v-340h-320zM684 713v314.998c0 177.333 105 363 315 557l13 12c154 142 261.667 266.333 323 373c57.333 100 86 202.333 86 307c0 159.333 -57 287.333 -171 384s-267 145 -459 145c-68.667 0 -133 -4.33301 -193 -13
c-62.667 -9.33301 -133.667 -25.666 -213 -48.999v217c66.667 11.333 143.167 21 229.5 29s155.833 12 208.5 12c255.333 0 458.333 -55.667 609 -167c170.667 -126 256 -312 256 -558c0 -223.333 -140.667 -475.666 -422 -756.999l-41 -41l-74 -74
c-155.333 -150.667 -233 -275 -233 -373v-319h-234z" />
    <glyph glyph-name="at" unicode="@" horiz-adv-x="4096" 
d="M2605 1655l123 257.999h160l-275 -1106c-27.333 -110 -41 -182.333 -41 -217c0 -122.667 78 -184 234 -184c60.667 0 127.167 13.333 199.5 40s140.833 63.667 205.5 111c142.667 104.667 254.334 250.334 335 437.001c74.667 172.667 112 353.334 112 542.001
c0 366 -132.5 659.5 -397.5 880.5s-615.833 331.5 -1052.5 331.5c-219.333 0 -426 -32.667 -620 -98s-367 -161 -519 -287c-412 -340.667 -618 -788.334 -618 -1343c0 -460 159 -819 477 -1077c294 -238 677 -357 1149 -357c207.333 0 422.833 34.333 646.5 103
s423.167 162.667 598.5 282l57 -90c-191.333 -145.333 -396 -254.333 -614 -327c-222 -74 -448.667 -111 -680 -111c-246.667 0 -476 31.333 -688 94c-208.667 62 -393 153.667 -553 275c-200 152.667 -350.333 331.5 -451 536.5s-151 436.833 -151 695.5
c0 432 132.333 813 397 1143c390 475.333 919.667 713 1589 713c219.333 0 423.166 -28.667 611.5 -86c188.333 -57.333 353.166 -140.666 494.499 -250c172.667 -133.333 302.5 -283.666 389.5 -450.999s130.5 -353 130.5 -557c0 -460.667 -162.333 -821 -487 -1081
c-184 -147.333 -387.333 -221 -610 -221c-126.667 0 -222.5 24.833 -287.5 74.5s-97.5 121.834 -97.5 216.501c0 16 2.66699 37.667 8 65v13c-67.333 -120.667 -150.5 -212.334 -249.5 -275.001s-209.833 -94 -332.5 -94c-203.333 0 -358.666 55.667 -465.999 167
s-161 272.666 -161 483.999c0 304 90 561.667 270 773s397.333 317 652 317c127.333 0 234.5 -29 321.5 -87s150.5 -142.333 190.5 -253zM2437 933.999l127 508c-30.667 132.667 -85 233.334 -163 302.001s-179.333 103 -304 103
c-225.333 0 -405.666 -106.667 -540.999 -320c-117.333 -184.667 -176 -396 -176 -634c0 -146.667 35.333 -263.334 106 -350.001c76 -94.667 185.667 -142 329 -142c153.333 0 287.333 52 401.999 156c108 97.333 181.333 223 220 377z" />
    <glyph glyph-name="A" unicode="A" horiz-adv-x="0" 
 />
    <glyph glyph-name="C" unicode="C" horiz-adv-x="1942" 
d="M287 0v2167c0 156 28.667 293.667 86 413c56.667 117.333 133 206.333 229 267c100 62.667 213.333 94 340 94c171.333 0 291.333 -45.833 360 -137.5s103 -196.167 103 -313.5c0 -112.667 -32.667 -215 -98 -307c-62.667 -88.667 -154.334 -169 -275.001 -241
c-57.333 -34 -175.333 -71.667 -354 -113c-85.333 -20 -143.333 -34.333 -174 -43v-447c67.333 52 169.333 94 306 126c118 28 229 42 333 42c178.667 0 318.167 -58.833 418.5 -176.5s150.5 -274.5 150.5 -470.5c0 -232 -57.333 -518.667 -172 -860h-205
c104 344.667 156 612.334 156 803.001c0 102 -11 192 -33 270c-18 64.667 -56 117.667 -114 159s-121 62 -189 62c-248.667 0 -426 -43.667 -532 -131c-49.333 -40.667 -79.666 -95.334 -90.999 -164.001l-8 -41c-13.333 -76.667 -20 -150.334 -20 -221.001v-737h-217z
M516 2015c246.667 41.333 424.333 104.333 533 189c103.333 99.333 155 203 155 311c0 136.667 -88.667 205 -266 205c-147.333 0 -254 -49.333 -320 -148c-68 -102 -102 -227.667 -102 -377v-180z" />
    <glyph glyph-name="D" unicode="D" horiz-adv-x="0" 
 />
    <glyph glyph-name="E" unicode="E" horiz-adv-x="3412" 
d="M2163 1835c-57.333 229.333 -209.001 344.001 -455.001 344.001c-170.667 0 -302 -64.333 -394 -193s-138 -311.334 -138 -548.001c0 -198 38.333 -361.667 115 -491c94 -158.667 233 -238 417 -238c118.667 0 222 35.167 310 105.5s144.333 163.5 169 279.5h205
c-14 -173.333 -91.333 -311.666 -232 -414.999c-129.333 -94.667 -284 -142 -464 -142c-249.333 0 -441 92.667 -575 278c-119.333 164 -179 375.667 -179 635c0 256.667 64.333 467 193 631c140 180 335 270 585 270c176.667 0 325.334 -47.333 446.001 -142
s189.334 -219.334 206 -374.001h-209zM3023 1442c0 180 -32.667 349.334 -98 508.001c-137.333 334.667 -375 572 -713 712c-158.667 66 -328 99 -508 99c-366 0 -673.333 -127 -922 -381c-262 -268 -393 -580.667 -393 -938c0 -170 34.333 -336.667 103 -500
c67.333 -160.667 162.666 -302.667 285.999 -426c259.333 -259.333 568 -389 926 -389c360.667 0 673.334 131 938.001 393c254 251.333 381 558.666 381 921.999zM1704 2904c406.667 0 753.337 -143.334 1040 -430.001c139.333 -139.333 244.5 -296 315.5 -470
s106.5 -361.333 106.5 -562c0 -201.333 -35.333 -388.333 -106 -561c-68.667 -168 -174 -322.333 -316 -463c-294.667 -292 -641.334 -438 -1040 -438s-741.334 144.667 -1028 434c-142 143.333 -248.667 300.333 -320 471c-73.333 175.333 -110 361 -110 557
c0 196.667 36.667 382.334 110 557.001c74.667 178 182.667 339 324 483c136.667 139.333 290.667 244.5 462 315.5s358.666 106.5 561.999 106.5z" />
    <glyph glyph-name="I" unicode="I" horiz-adv-x="1073" 
d="M401 0v2949h267v-2949h-267z" />
    <glyph glyph-name="J" unicode="J" horiz-adv-x="2261" 
d="M705 1163l162.995 151.997c120 -70 218.333 -112.333 295 -127c42.667 -8 86.334 -12 131.001 -12c66 0 123.333 9.33301 172 28c98 37.333 196.333 133 295 287h213v-1798c0 -137.333 -19.167 -273 -57.5 -407s-127.666 -258.833 -267.999 -374.5
s-343.166 -173.5 -608.499 -173.5c-353.333 0 -605.666 108 -756.999 324c-74 106 -111 231.667 -111 377c0 116.667 21.833 218.834 65.5 306.501s116.167 173.834 217.5 258.501l118 -119c-55.333 -51.333 -103.333 -118.333 -144 -201
c-42.667 -86.667 -64 -165.667 -64 -237c0 -190 70.667 -323.5 212 -400.5s305.333 -115.5 492 -115.5c299.333 0 502 109.667 608 329c53.333 110.667 80 246.667 80 408v1577c-108 -172 -280 -258 -516 -258c-51.333 0 -110 7 -176 21l81 -139
c24.667 -43.333 41.334 -94 50.001 -152c4 -26.667 5.33301 -54 4 -82c-4 -86 -13.667 -144.667 -29 -176c-42.667 -85.333 -105.334 -148.333 -188.001 -189c-77.333 -38 -162 -57 -254 -57c-114 0 -206.667 24.667 -278 74c-175.333 121.333 -263 271.333 -263 450
c0 180.667 60.333 271 181 271c38 -3.33301 57 -20 57 -50c0 -18.667 -6.16699 -52.667 -18.5 -102s-18.5 -87.666 -18.5 -114.999c0 -97.333 29.667 -176.833 89 -238.5s137.666 -92.5 234.999 -92.5c32.667 0 65.334 4 98.001 12c75.333 18 123 41.333 143 70
c41.333 58 62 116.667 62 176c0 56 -12.167 108 -36.5 156s-72.166 120 -143.499 216c-49.333 49.333 -93 90.333 -131 123z" />
    <glyph glyph-name="L" unicode="L" horiz-adv-x="2253" 
d="M401 0v2949h267v-2711h1470v-238h-1737z" />
    <glyph glyph-name="M" unicode="M" horiz-adv-x="3830" 
d="M401 0v2949h385l1151 -2564l1090 2564h401v-2949h-250v2687l-1146 -2687h-193l-1184 2630v-2630h-254z" />
    <glyph glyph-name="N" unicode="N" horiz-adv-x="2974" 
d="M401 0v2949h295l1626 -2580v2580h250v-2949h-323l-1598 2540v-2540h-250z" />
    <glyph glyph-name="Q" unicode="Q" horiz-adv-x="2126" 
d="M1081 1147c243.333 136 364.999 263.002 364.999 381.002c0 68 -30 126.667 -90 176c-57.333 47.333 -177.666 104.666 -360.999 171.999c-237.333 -104.667 -356 -230.334 -356 -377.001c0 -76 34 -141.333 102 -196c66 -52.667 179.333 -104.667 340 -156z
M429.999 270.002c153.333 -65.333 313 -98.001 479 -98.001c142 0 263.333 24 364 72c131.333 62.667 197 157.334 197 284.001c0 142 -147.333 267.667 -442 377l-115 41c-190 70.667 -327.667 145.667 -413 225c-82 76.667 -123 165.667 -123 267
c0 218.667 148.667 389.334 446 512.001c-138 73.333 -238 150.166 -300 230.499s-93 172.833 -93 277.5c0 174 71.667 310.667 215 410c125.333 86.667 279 130 461 130c50.667 0 104 -4 160 -12c30.667 -4.66699 138.334 -23.667 323.001 -57v-222
c-186.667 49.333 -330 74 -430 74c-306 0 -459 -105 -459 -315c0 -125.333 121.667 -238.666 365 -339.999l74 -33c255.333 -109.333 415 -196.666 479 -261.999c68 -70 102 -154.667 102 -254c0 -103.333 -36.833 -196.5 -110.5 -279.5s-180.167 -152.167 -319.5 -207.5
c161.333 -64.667 277.5 -138.834 348.5 -222.501s106.5 -188.5 106.5 -314.5c0 -208.667 -83 -365.667 -249 -471c-139.333 -87.333 -320 -131 -542 -131c-114.667 0 -241.334 16.667 -380.001 50c-48.667 11.333 -96.667 24.666 -144 39.999v229z" />
    <glyph glyph-name="R" unicode="R" horiz-adv-x="2798" 
d="M659 147c90.667 -126 189 -224 295 -294c26 -17.333 149 -79 369 -185c226 -108.667 418.667 -220.667 578 -336c155.333 -112 324.333 -259.333 507 -442l-155 -152c-188 194 -357.333 344.333 -508 451c-90.667 64.667 -235.334 146.667 -434.001 246
c-315.333 158 -553 237 -713 237c-120 0 -237.333 -8 -352 -24l-17 188c101.333 19.333 234 29 398 29c-265.333 267.333 -398 552.666 -398 855.999c0 314.667 104 542.667 312 684c100 68 220 102 360 102c153.333 0 269.333 -30 348 -90
c76.667 -58.667 132.667 -117.334 168 -176.001c72.667 89.333 157.334 156.333 254.001 201c93.333 43.333 189 65 287 65c228.667 0 402 -92.667 520 -278c60 -94.667 90 -210.667 90 -348c0 -246 -91.333 -492 -274 -738l-131 140
c93.333 129.333 158.666 300 195.999 512c-3.33301 153.333 -36 269.333 -98 348c-82 104 -177.667 154.333 -287 151c-106 -3.33301 -194.333 -25.666 -265 -66.999c-123.333 -72.667 -185 -259 -185 -559v-381h-217v381c0 412 -146.333 618 -439 618
c-144.667 -15.333 -248.334 -70 -311.001 -164c-67.333 -101.333 -102.666 -213.333 -105.999 -336c-3.33301 -114 16.334 -235.667 59.001 -365c39.333 -119.333 89 -210.666 149 -273.999z" />
    <glyph glyph-name="S" unicode="S" horiz-adv-x="2396" 
d="M1409 102c153.333 0 269.332 60.333 347.999 181c87.333 134 131 276 131 426c0 163.333 -43.667 305.333 -131 426c-73.333 125.333 -189.333 188 -348 188c-143.333 0 -256.666 -62.667 -339.999 -188c-82 -122.667 -123 -264.667 -123 -426
c0 -158.667 41 -300.667 123 -426c78.667 -120.667 192 -181 340 -181zM1896 1221l-0.000976562 1065c0 300 -118.667 450 -356 450c-79.333 0 -144.333 -29 -195 -87c-27.333 -30.667 -56.666 -78 -87.999 -142c-24 -48.667 -36 -119.667 -36 -213v-348h-242v446
c0 88 -34 175.333 -102 262c-49.333 62.667 -123.333 94 -222 94c-84 0 -155 -30 -213 -90c-64.667 -67.333 -101.334 -145 -110.001 -233c0 -86.667 20.667 -159.667 62 -219c20.667 -30 75 -85.333 163 -166l-123 -131c-207.333 144.667 -311 322 -311 532
c0 148.667 52.167 269.167 156.5 361.5s233.833 138.5 388.5 138.5c177.333 0 323.333 -88.667 438 -266c106.667 177.333 256.667 266 450 266c118 0 217.833 -27.5 299.5 -82.5s143.167 -128.5 184.5 -220.5c46 -102.667 69 -216 69 -340v-1581
c0 -153.333 -28.667 -290 -86 -410c-58.667 -122.667 -139.334 -216.834 -242.001 -282.501s-222.667 -98.5 -360 -98.5c-224 0 -397.333 77.667 -520 233c-112 142 -168 328 -168 558c0 228.667 63 417 189 565c66.667 78.667 136 134.667 208 168
c84.667 39.333 172.334 58.333 263.001 57c234.667 -4 402.334 -99.333 503.001 -286z" />
    <glyph glyph-name="T" unicode="T" horiz-adv-x="2892" 
d="M913 119c164.667 0 289 61.334 373 184.001c82 120 123 255.333 123 406c0 163.333 -41 302 -123 416c-92 126.667 -216.333 190 -373 190c-210 0 -357.333 -114.667 -442 -344c-24.667 -90 -37 -177.333 -37 -262c0 -138.667 43.667 -275.334 131 -410.001
c78 -120 194 -180 348 -180zM1950 66.001c76.667 56.667 185.664 149.328 326.998 277.995c126.667 142 192.334 281.333 197 418c4.66699 143.333 -32.333 273 -111 389c-76.667 112 -176.334 168 -299 168c-118 0 -216.333 -35.667 -295 -107
c-62 -56 -103 -102.333 -123 -139c-21.333 -39.333 -37.666 -99.333 -48.999 -180c0 -19.333 1.5 -48.666 4.5 -87.999s4.5 -68.666 4.5 -87.999c0 -319.333 -109.333 -548.666 -328 -687.999c-108 -68.667 -228 -103 -360 -103c-155.333 0 -284 38.333 -386 115
c-202 152 -303 377.333 -303 676c0 130.667 25 256.834 75 378.501s125.833 220.667 227.5 297s230.5 114.5 386.5 114.5c256.667 0 446.334 -106.333 569.001 -319c155.333 212.667 342.333 319 561 319c138.667 0 253.334 -32.667 344 -98
c180 -129.333 270 -332.666 270 -609.999c0 -322.667 -193.667 -613.667 -581 -873z" />
    <glyph glyph-name="U" unicode="U" horiz-adv-x="1860" 
d="M463 233h-221l376 795l-376 791h221l422 -791zM1192 233h-221l377 795l-377 791h221l418 -791z" />
    <glyph glyph-name="V" unicode="V" horiz-adv-x="2482" 
d="M1106 0l-1077 2949h290l951 -2650l925 2650h259l-1049 -2949h-299z" />
    <glyph glyph-name="W" unicode="W" horiz-adv-x="2085" 
d="M1253 918c-112 136 -236.001 204 -372.001 204c-93.333 0 -161.666 -21.667 -204.999 -65c-32.667 -41.333 -49 -85 -49 -131c0 -134 84.667 -201 254 -201c117.333 0 241.333 64.333 372 193zM302.999 -537c0 -166.667 43.667 -296.331 131 -388.998
c71.333 -76 186 -126.333 344 -151c34 -5.33301 62.667 -8 86 -8c80.667 0 176.334 19.333 287.001 58c125.333 43.333 206 93.333 242 150c60 94.667 90 242.334 90 443.001l-148 1212c-65.333 -60.667 -139.333 -115.667 -222 -165
c-88.667 -52.667 -163.334 -79.667 -224.001 -81c-120 -2.66699 -225.333 31.666 -316 102.999c-84.667 66.667 -127 165 -127 295c0 129.333 41 229 123 299c73.333 62.667 173 96.667 299 102c77.333 3.33301 166.333 -22.334 267 -77.001
c94 -51.333 155.333 -100.666 184 -147.999l-4 680c-1.33301 233.333 -68.333 391.666 -201 474.999l-360 292c-66 52 -118 91.333 -156 118l-111 -893h-168l99 1089h303c73.333 -76 173 -158 299 -246c135.333 -94.667 241.333 -183 318 -265s126.334 -156 149.001 -222
c24.667 -72 37 -154 37 -246v-737l331 258v-242l-331 -237l331 -246l-24 -205l-299 221l127 -815c19.333 -124 29 -237.333 29 -340c0 -334 -90.333 -552.333 -271 -655c-178 -101.333 -358 -152 -540 -152c-142 0 -271.833 26 -389.5 78s-209.167 127.333 -274.5 226
s-98 218.667 -98 360c0 107.333 21.667 211 65 311c98 226.667 256.333 355 475 385l54 -139c-112.667 -26 -206.334 -86.667 -281.001 -182c-72 -90.667 -113.667 -195.334 -125 -314.001z" />
    <glyph glyph-name="X" unicode="X" horiz-adv-x="2433" 
d="M20 0l1037 1524l-971 1425h307l811 -1220l856 1220h303l-1003 -1413l1048 -1536h-303l-897 1319l-880 -1319h-308z" />
    <glyph glyph-name="Y" unicode="Y" horiz-adv-x="1860" 
d="M1393 233l-422 795l422 791h221l-381 -791l381 -795h-221zM664 233l-422 795l422 791h221l-377 -791l377 -795h-221z" />
    <glyph glyph-name="Z" unicode="Z" horiz-adv-x="1892" 
d="M905 98c153.333 0 269.333 60.334 348 181.001c87.333 134 131 276 131 426c0 163.333 -43.667 305 -131 425c-73.333 126 -189.333 189 -348 189c-142.667 0 -256 -63 -340 -189c-82 -122.667 -123 -264.334 -123 -425.001c0 -158.667 41 -300.667 123 -426
c78.667 -120.667 192 -181 340 -181zM1393 2867l213 -0.000976562v-2154c0 -153.333 -28.667 -290 -86 -410c-59.333 -123.333 -140.166 -217.666 -242.499 -282.999s-222.166 -98 -359.499 -98c-224 0 -397.667 77.333 -521 232c-112 142 -168 328.333 -168 559
c0 109.333 16.667 214.333 50 315c31.333 94 77.666 177.333 138.999 250c65.333 78 135 134 209 168c85.333 39.333 172.666 58.333 261.999 57c235.333 -4 403.333 -98 504 -282v1646z" />
    <glyph glyph-name="bracketleft" unicode="[" horiz-adv-x="1126" 
d="M340 -623v3572h590v-164h-361v-3240h361v-168h-590z" />
    <glyph glyph-name="backslash" unicode="\" horiz-adv-x="1139" 
d="M1110 -283h-205l-1040 3273h205z" />
    <glyph glyph-name="bracketright" unicode="]" horiz-adv-x="1126" 
d="M786 2949v-3572h-585v168h360v3240h-360v164h585z" />
    <glyph glyph-name="asciicircum" unicode="^" horiz-adv-x="4096" 
d="M2163 2916l1081 -1114h-250l-946 938l-950 -938h-250l1077 1114h238z" />
    <glyph glyph-name="underscore" unicode="_" horiz-adv-x="2048" 
d="M2048 1290v-160h-2048v160h2048z" />
    <glyph glyph-name="grave" unicode="`" horiz-adv-x="1966" 
d="M1401 49c-19.333 53.333 -47.332 87.666 -83.999 102.999c-24.667 10.667 -70.334 16 -137.001 16c-46.667 11.333 -70 60.333 -70 147s17.667 156.334 53 209.001c14.667 37.333 51.667 69.333 111 96c52.667 23.333 101.667 35 147 35
c123.333 0 195.666 -73.667 216.999 -221l4 -356c2 -194.667 -47.333 -346 -148 -454c-37.333 -40 -80.666 -73 -129.999 -99c-84.667 -44.667 -172 -70.667 -262 -78v152c136 32.667 224.667 95.334 266 188.001c32.667 73.333 49 133.333 49 180
c0 33.333 -5.33301 60.666 -16 81.999zM623.001 49c-19.333 53.333 -47.333 87.666 -84 102.999c-25.333 10.667 -71.333 16 -138 16c-46 11.333 -69 60.333 -69 147s17.667 156.334 53 209.001c14.667 38 51.667 70 111 96c51.333 23.333 100.333 35 147 35
c123.333 0 195.666 -73.667 216.999 -221l4 -356c1.33301 -144 -24.667 -263 -78 -357c-49.333 -86.667 -116.166 -152.167 -200.499 -196.5s-171.5 -70.166 -261.5 -77.499v152c136 32 224.667 94.667 266 188c32.667 73.333 49 133.333 49 180
c0 33.333 -5.33301 60.666 -16 81.999z" />
    <glyph glyph-name="a" unicode="a" horiz-adv-x="1835" 
d="M410 696c0 -182.667 40.665 -327.334 121.998 -434.001c79.333 -104 216 -156 410 -156c118.667 0 225.334 42.333 320.001 127c98 88 147 215 147 381c0 111.333 -23.333 196 -70 254c-35.333 43.333 -96.666 95.333 -183.999 156l-246 139
c-98.667 58 -164.334 99.667 -197.001 125c-75.333 60.667 -116 123 -122 187c0 68 27.333 102 82 102c24 0 48.333 -7 73 -21c16 -9.33301 43.333 -28.333 82 -57l136 -98c67.333 -51.333 127.333 -92.333 180 -123c194 -113.333 325 -226.666 393 -339.999
c46.667 -78 70 -172.333 70 -283c0 -218.667 -61.667 -394 -185 -526c-125.333 -135.333 -294.666 -203 -507.999 -203c-208 0 -374 65.333 -498 196s-186 303 -186 517v57h181z" />
    <glyph glyph-name="b" unicode="b" horiz-adv-x="2191" 
d="M672 2867c70.667 -76 141.667 -141.331 213 -195.998l205 -156c122.667 -96 184 -243.333 184 -442c0 -36.667 -2.83301 -91.334 -8.5 -164.001s-8.5 -127.334 -8.5 -164.001c0 -35.333 8.33301 -64 25 -86c27.333 -16.667 58.666 -40 93.999 -70
c18 -17.333 44 -39 78 -65l152 -111c237.333 -182 356 -410 356 -684c0 -250 -83.333 -448 -250 -594c-158.667 -139.333 -364.667 -209 -618 -209c-170 0 -320.333 34.333 -451 103c-127.333 66.667 -228.166 164.667 -302.499 294s-111.5 273 -111.5 431
c0 204 56 367.667 168 491c52 57.333 116.333 112 193 164l188 127c140 90.667 216.667 174 230 250c21.333 118.667 32 225 32 319c0 93.333 -15 167.333 -45 222c-34 61.333 -152.667 154 -356 278l-78 -594h-168l66 856h213zM1122 1520
c-204.667 -108.667 -337.001 -185.332 -397.001 -229.999c-105.333 -78.667 -184.666 -168.667 -237.999 -270c-50 -94.667 -73 -210.667 -69 -348c2.66699 -110 50.334 -220.667 143.001 -332c43.333 -52.667 88.666 -94.334 135.999 -125.001
c56.667 -38 111 -63.333 163 -76c91.333 -22 191 -33 299 -33c160.667 16 281 51.667 361 107c94 65.333 158 147.333 192 246c32.667 96 49 212 49 348c-36.667 263.333 -249.667 501 -639 713z" />
    <glyph glyph-name="c" unicode="c" horiz-adv-x="2662" 
d="M1409 1536c24.667 27.333 54.666 41 89.999 41c39.333 0 113 -39.667 221 -119l140 -98c37.333 -26 75.333 -48 114 -66c112.667 -52.667 192 -93.667 238 -123c147.333 -92.667 221 -236 221 -430c0 -223.333 -86 -379 -258 -467c210 -144.667 315 -346.667 315 -606
c0 -341.333 -159.667 -603.666 -479 -786.999c-166.667 -95.333 -375.667 -143 -627 -143c-357.333 0 -648 119 -872 357c-113.333 120 -198 257.667 -254 413c-57.333 158.667 -86 340.334 -86 545.001c0 339.333 71 672.666 213 999.999c69.333 160 154 306 254 438h217
c-110 -202.667 -196.167 -377.5 -258.5 -524.5s-108.5 -293.167 -138.5 -438.5c-38.667 -185.333 -58 -328.666 -58 -429.999c0 -299.333 52 -531.333 156 -696c98 -155.333 210 -267.333 336 -336c140.667 -76.667 312.667 -115 516 -115c196.667 0 360.667 38.333 492 115
c111.333 65.333 194.333 139 249 221c63.333 95.333 95 218.333 95 369c0 147.333 -34.333 260.666 -103 339.999c-65.333 76 -140.333 128 -225 156c-106.667 35.333 -218.667 53 -336 53c-38 0 -65.333 -1.33301 -82 -4v200h164c218.667 0 359.334 15 422.001 45
c90 43.333 135 129.666 135 258.999c-18 128 -67 218 -147 270c-90 58.667 -191.333 116 -304 172c-98.667 48.667 -184.667 110 -258 184c-68 68.667 -102 137 -102 205z" />
    <glyph glyph-name="d" unicode="d" horiz-adv-x="3039" 
d="M2073 127c181.333 0 317.666 58.667 409 176c90 115.333 135 253.333 135 414c0 163.333 -45 301 -135 413s-226.333 168 -409 168c-174 0 -308 -58.667 -402 -176c-98 -122.667 -147 -257.667 -147 -405c0 -150.667 49 -288.667 147 -414
c91.333 -117.333 225.333 -176 402 -176zM1339 659c0.666992 32 2.33301 64.666 5 97.999c2.66699 30.667 4 47.334 4 50.001c0 168 -39.333 291.333 -118 370c-82.667 82 -202 121 -358 117c-136 -3.33301 -241 -60.666 -315 -171.999
c-67.333 -101.333 -102.666 -213.333 -105.999 -336c-3.33301 -114 16.334 -235.667 59.001 -365c39.333 -119.333 89 -210.666 149 -273.999c90.667 -126 189 -224 295 -294c26 -17.333 149 -79 369 -185c226 -108.667 418.667 -220.667 578 -336
c155.333 -112 324.333 -259.333 507 -442l-155 -152c-188 194 -357.333 344.333 -508 451c-90.667 64.667 -235.334 146.667 -434.001 246c-315.333 158 -553 237 -713 237c-120 0 -237.333 -8 -352 -24l-17 188c101.333 19.333 234 29 398 29
c-265.333 267.333 -398 552.666 -398 855.999c0 313.333 104 541.333 312 684c103.333 70.667 231.666 107.667 384.999 111c122 2.66699 237.333 -21.666 346 -72.999c103.333 -48.667 179 -117.334 227 -206.001c128.667 180 317 270 565 270
c148.667 0 278.667 -32.667 390 -98c109.333 -64.667 196.666 -159 262 -283c62.667 -120 94 -256.333 94 -409c0 -318.667 -118.667 -548 -356 -688c-116 -68.667 -246 -103 -390 -103c-286 0 -494.667 112 -626 336c-70 119.333 -103 251.666 -99 396.999z" />
    <glyph glyph-name="e" unicode="e" horiz-adv-x="2122" 
d="M803 -1081c432.667 0 688.335 124.002 767.002 372.002c34.667 109.333 52 243.333 52 402v1016c0 380 -155.667 583.333 -467 610c-30.667 2.66699 -64.667 4 -102 4c-172.667 0 -313.334 -41.667 -422.001 -125c-116 -88.667 -170.667 -217.667 -164 -387l8 -197
c0.666992 -17.333 3.66699 -45.666 9 -84.999c5.33301 -36 8 -63.667 8 -83c0 -51.333 -19.333 -77 -58 -77c-128 0 -192 98.333 -192 295c0 562 270.333 843 811 843c170.667 0 320 -32 448 -96c152.667 -76 249 -188.667 289 -338c30 -111.333 45 -213.666 45 -306.999
v-1073c0 -127.333 -19 -262.666 -57 -405.999c-36.667 -139.333 -121.334 -265 -254.001 -377c-135.333 -114.667 -332 -172 -590 -172c-181.333 0 -330.666 26.167 -447.999 78.5s-208.5 127.666 -273.5 225.999s-97.5 218.166 -97.5 359.499c0 108 21.667 211.667 65 311
c98.667 226.667 257 355 475 385l54 -139c-112.667 -26 -206.334 -86.667 -281.001 -182c-72 -90.667 -113.667 -195.334 -125 -314.001c0 -166.667 43.667 -296.334 131 -389.001c70.667 -74.667 193.667 -126.334 369 -155.001z" />
    <glyph glyph-name="f" unicode="f" horiz-adv-x="2937" 
d="M930 246c158.667 2.66699 278.833 59 360.5 169s122.5 235.333 122.5 376c0 132.667 -36.667 254 -110 364c-78 117.333 -205 176 -381 176c-162 0 -286.333 -56 -373 -168c-79.333 -102 -119 -224.667 -119 -368c0 -126.667 43.667 -253.667 131 -381
c98.667 -114.667 221.667 -170.667 369 -168zM1245 -168c-72 -28.667 -131.332 -80.998 -177.999 -156.998c-45.333 -72.667 -68 -148.667 -68 -228c0 -194.667 84.667 -338 254 -430c105.333 -57.333 272 -86 500 -86c388.667 0 648 125.667 778 377
c36 70 54 173.667 54 311c0 200 -68.333 355.667 -205 467c-97.333 79.333 -214.333 127 -351 143l-194 21v135c215.333 0 392.666 53.333 531.999 160c101.333 78 152 191.333 152 340c0 157.333 -50.333 270.333 -151 339s-202 103 -304 103s-193.333 -31.333 -274 -94
c-120.667 -94 -185 -226.333 -193 -397c3.33301 -14 5 -36 5 -66c0 -272.667 -109.333 -473.334 -328 -602.001c-106 -62.667 -224.667 -94 -356 -94c-278.667 0 -479.667 117.333 -603 352c-57.333 109.333 -86 231 -86 365c0 268 101 471.333 303 610
c103.333 70.667 232 106 386 106c256.667 0 446.334 -106.333 569.001 -319c155.333 212.667 342.333 319 561 319c284.667 0 480 -105 586 -315c48.667 -96.667 73 -201.667 73 -315c0 -124 -30 -234.667 -90 -332c-61.333 -99.333 -146 -173 -254 -221
c278.667 -132.667 418 -367.667 418 -705c0 -112.667 -16.333 -217.667 -49 -315c-76.667 -228.667 -244.667 -391.334 -504 -488.001c-139.333 -52 -310 -78 -512 -78c-394 0 -669.333 114.667 -826 344c-66 98 -99 207.333 -99 328c0 142 40.667 259.333 122 352
c83.333 95.333 173.666 165 270.999 209z" />
    <glyph glyph-name="g" unicode="g" horiz-adv-x="1950" 
d="M1098 311c-136.667 -56.667 -263.668 -125 -381.001 -205c-106 -72.667 -186.667 -153 -242 -241c-62.667 -100 -94 -209.333 -94 -328c0 -120.667 32.833 -233 98.5 -337s152.834 -177.333 261.501 -220c103.333 -40.667 192.333 -61 267 -61
c141.333 0 256 25.667 344 77c94 54.667 160.667 128.667 200 222c49.333 89.333 74 201.333 74 336c0 106 -45 231.333 -135 376c-93.333 149.333 -224.333 276.333 -393 381zM1278 557c0.666992 -36.667 3.33008 -66.4951 7.99707 -89.4951s15.667 -45.167 33 -66.5
c14.667 -18.667 85.334 -83 212.001 -193c78 -69.333 146.667 -156.333 206 -261c65.333 -114.667 98 -248.667 98 -402c0 -159.333 -32.667 -301.333 -98 -426c-58 -111.333 -153.667 -204 -287 -278c-123.333 -68.667 -261.333 -103 -414 -103
c-169.333 0 -319.333 34.333 -450 103c-127.333 67.333 -228.166 165.5 -302.499 294.5s-111.5 272.5 -111.5 430.5c0 78 22 173.667 66 287c29.333 75.333 70 140.666 122 195.999c58 61.333 118.333 114.666 181 159.999c68.667 49.333 136.667 94.333 204 135
c9.33301 5.33301 41 22 95 50l78 40c63.333 35.333 104 102 122 200c8.66699 46 13 128.333 13 247c0 154.667 -27.333 265 -82 331c-60.667 73.333 -153.667 107.666 -279 102.999c-215.333 -7.33301 -323 -149.333 -323 -426v-266h-197v204
c0 187.333 34 332.166 102 434.499s143.333 169.166 226 200.499c80 30 159 45 237 45c138 0 247.333 -34 328 -102c136.667 -114.667 206.334 -290.667 209.001 -528z" />
    <glyph glyph-name="h" unicode="h" horiz-adv-x="2007" 
d="M729 2941c28.667 0 80.6641 -23.335 155.997 -70.002c66.667 -41.333 119.667 -72.666 159 -94l322 -152c136.667 -66 233 -127.333 289 -184c60 -61.333 90 -144.666 90 -249.999c0 -86 -26 -157 -78 -213c-54 -58 -112.667 -99 -176 -123
c188.667 -103.333 283 -239.666 283 -408.999c0 -64 -28.333 -129.333 -85 -196s-121.334 -114.667 -194.001 -144c107.333 -50.667 190.833 -119.167 250.5 -205.5s89.5 -193.833 89.5 -322.5c0 -214 -77.667 -379.333 -233 -496
c-139.333 -104 -319.666 -156 -540.999 -156c-153.333 0 -299.5 24.667 -438.5 74s-248.167 121.666 -327.5 216.999c-82 98 -123 219.667 -123 365c0 168 53.333 295 160 381c47.333 38 95 57 143 57c44 0 75.333 -12.333 94 -37c6 -11.333 9 -19.666 9 -24.999
c0 -20 -17.333 -46 -52 -78l-75 -69c-52 -38.667 -78 -101.334 -78 -188.001c0 -176.667 81.333 -310 244 -400c131.333 -72 293 -108 485 -108c291.333 0 462 116 512 348c8 37.333 12 72.666 12 105.999c0 72 -26 147.333 -78 226
c-34.667 52.667 -117 111.334 -247 176.001l-203 102l-160 88c-122 66 -216.333 120 -283 162c-73.333 46 -129.333 88.333 -168 127c-8 8 -12 23 -12 45c5.33301 31.333 11 51.666 17 60.999c11.333 16.667 41.333 25 90 25c16 0 32.333 -4 49 -12
c6.66699 -5.33301 36.667 -27.333 90 -66c42 -30 95.333 -62.667 160 -98c134.667 -73.333 227.334 -117 278.001 -131c60 -16.667 109.333 -25 148 -25c88.667 0 162.334 32 221.001 96c35.333 38.667 53 80.334 53 125.001c0 40 -12.333 78.333 -37 115
c-32 47.333 -96 92.333 -192 135c-18.667 8 -46.667 22.667 -84 44l-76 38l-213 111c-164 88.667 -272 152.667 -324 192.001c-78.667 60 -118 113.333 -118 160c0 14 2.66699 25 8 33c18 10.667 35.667 16 53 16c32.667 0 57.334 -4 74.001 -12
c56 -38.667 142 -94.667 258 -168c140.667 -82 245.667 -127 315 -135c87.333 0 154.333 5.33301 201 16c82 31.333 123 86 123 164c0 39.333 -17.667 77.666 -53 115l-234 143c-44 26.667 -127.333 70.334 -250 131c-79.333 38.667 -183 93.334 -311 164
c-71.333 46 -107 102 -107 168c0 32.667 26 49 78 49c4.66699 1.33301 9 2 13 2c9.33301 0 17.333 -3.33301 24 -10z" />
    <glyph glyph-name="i" unicode="i" horiz-adv-x="2097" 
d="M1208 70c300.667 169.333 451 394.331 451 674.998c0 183.333 -58.5 326.833 -175.5 430.5s-260.5 155.5 -430.5 155.5c-99.333 0 -196 -21.5 -290 -64.5s-172.333 -108.833 -235 -197.5c-57.333 -81.333 -86 -189.333 -86 -324c0 -111.333 34.333 -232.666 103 -363.999
c64 -122.667 176 -227.667 336 -315l-86 -140c-297.333 136.667 -476.333 334.667 -537 594c-19.333 82.667 -29 156.334 -29 221.001c0 151.333 35.667 285.333 107 402c148.667 242.667 386.334 364 713.001 364c243.333 0 439.666 -68 588.999 -204
c70.667 -64 126.667 -146 168 -246s62 -205.333 62 -316c0 -178.667 -53.333 -342 -160 -490c-100.667 -138.667 -235.667 -247 -405 -325z" />
    <glyph glyph-name="j" unicode="j" horiz-adv-x="1692" 
d="M115 -1081c132 52.667 238.667 125.667 320 219c84 96.667 124.667 209.334 122 338.001c-2 92.667 -34.667 184 -98 274c-66 94 -146.667 176 -242 246l504 819l-393 672h225l291 -508l405 688c49.333 104.667 74 189.334 74 254.001c0 46 -19 85.667 -57 119
c-31.333 27.333 -69.666 41 -114.999 41c-43.333 0 -84.333 -11 -123 -33c-108 -62 -169.333 -152 -184 -270h-164c0 147.333 42.333 262.666 127 345.999s200.667 125 348 125c132 0 235.667 -38.333 311 -115c47.333 -48.667 73.333 -114.334 78 -197.001
c0.666992 -14.667 -2 -35 -8 -61c-24.667 -106.667 -69.667 -213.334 -135 -320.001l-418 -684l500 -872h-226l-401 696l-405 -692c218 -90.667 327 -256 327 -496c0 -131.333 -31.333 -250 -94 -356s-147.334 -194.667 -254.001 -266
c-124 -83.333 -229 -132.666 -315 -147.999v181z" />
    <glyph glyph-name="k" unicode="k" horiz-adv-x="1950" 
d="M1679 1491l-0.00195312 -474.998c0 -182.667 -23.667 -326.334 -71 -431.001c-58.667 -131.333 -162 -229.333 -310 -294c320 -84.667 480 -315.334 480 -692.001c0 -424.667 -177.667 -696.667 -533 -816c-105.333 -35.333 -218.666 -53 -339.999 -53
c-152.667 0 -292 31.333 -418 94c-141.333 70.667 -241 170.334 -299 299.001c-48.667 108 -73 220 -73 336c0 290.667 125.667 503.667 377 639l106 -102c-165.333 -122 -263.666 -275 -294.999 -459c-5.33301 -31.333 -8 -54.333 -8 -69
c0 -81.333 20.333 -161.333 61 -240c42 -83.333 94 -147 156 -191c105.333 -75.333 235 -114.666 389 -117.999c41.333 -0.666992 97.333 4.66602 168 15.999c120 20 218 57.667 294 113c134.667 98.667 202 263 202 493c0 42 -1.33301 80.333 -4 115
c-12 154 -65.333 278.333 -160 373c-98 98 -219.667 147 -365 147v217c284 21.333 426 227.666 426 618.999v479h217z" />
    <glyph glyph-name="l" unicode="l" horiz-adv-x="3760" 
d="M659 123c122.667 -222 366.002 -403.665 730.002 -544.998c244.667 -82 609 -212 1093 -390c177.333 -70.667 376.666 -164.667 597.999 -282l-123 -192c-214 105.333 -484.333 220 -811 344c-60 22.667 -158.333 58 -295 106l-291 101l-307 104
c-318 106.667 -558.333 160 -721 160c-56.667 0 -137 -8.33301 -241 -25l-25 209c120 22 251 35.667 393 41c-168 170 -290.667 365.333 -368 586c-41.333 118.667 -62 243 -62 373c0 120 22 242.667 66 368c100 284 310.333 426 631 426c218 0 387.333 -86 508 -258
c53.333 84.667 124.166 148.834 212.499 192.501s178.5 65.5 270.5 65.5s181.667 -20.167 269 -60.5s160 -101.833 218 -184.5c114.667 163.333 286.667 245 516 245c98 0 193.667 -23 287 -69c98 -48 176 -117.667 234 -209c60 -94.667 90 -210.667 90 -348
c0 -246 -91.667 -492 -275 -738l-131 140c93.333 128 159 298.667 197 512c-2.66699 151.333 -35.334 267.333 -98.001 348c-75.333 97.333 -171 147.666 -287 150.999c-172.667 5.33301 -299.667 -73.667 -381 -237c-27.333 -54.667 -41 -143.334 -41 -266.001v-529h-221
v529c0 138 -29.333 254 -88 348c-60.667 96 -157 145 -289 147c-123.333 2 -214.333 -45.833 -273 -143.5s-88 -214.834 -88 -351.501v-529h-221v381c0 102.667 -13 201 -39 295c-25.333 90 -58.666 162.333 -99.999 217c-38.667 50.667 -82 85.667 -130 105
c-51.333 20 -118.666 30 -201.999 30c-132.667 -14 -235 -78 -307 -192c-66.667 -105.333 -102 -217.333 -106 -336c-3.33301 -117.333 15.667 -239 57 -365c39.333 -118.667 89.666 -210 150.999 -274z" />
    <glyph glyph-name="m" unicode="m" horiz-adv-x="1892" 
d="M905 98c153.333 0 269.333 60.334 348 181.001c87.333 134 131 276 131 426c0 163.333 -43.667 305 -131 425c-73.333 126 -189.333 189 -348 189c-142.667 0 -256 -63 -340 -189c-82 -122.667 -123 -264.334 -123 -425.001c0 -158.667 41 -300.667 123 -426
c78.667 -120.667 192 -181 340 -181zM467 2011c-50 0 -95.332 22.333 -135.999 67s-61 118 -61 220c0 240 89 420.333 267 541c100.667 68 237 102 409 102c289.333 0 484.666 -99.667 585.999 -299c49.333 -97.333 74 -213.333 74 -348v-1581
c0 -153.333 -28.667 -290 -86 -410c-59.333 -123.333 -140.166 -217.666 -242.499 -282.999s-222.166 -98 -359.499 -98c-224 0 -397.667 77.333 -521 232c-112 142 -168 328.333 -168 559c0 109.333 16.667 214.333 50 315c31.333 94 77.666 177.333 138.999 250
c65.333 78 135 134 209 168c85.333 39.333 172.666 58.333 261.999 57c232.667 -4 400.667 -99.333 504 -286v1064c0 133.333 -31.667 240.666 -95 322c-70 90 -169.667 134.333 -299 133c-278.667 -2.66699 -441 -116 -487 -340c0 -28 2 -70.333 6 -127s6 -99 6 -127
c0 -72.667 -19 -116.334 -57 -131.001z" />
    <glyph glyph-name="n" unicode="n" horiz-adv-x="1892" 
d="M987 102c148 0 261.333 60.333 340 181c82 126 123 268 123 426c0 160.667 -41.333 303.167 -124 427.5s-195.667 186.5 -339 186.5c-158 0 -274 -62.667 -348 -188c-87.333 -120.667 -131 -262.667 -131 -426c0 -150.667 43.667 -292.667 131 -426
c79.333 -120.667 195.333 -181 348 -181zM1642 2785c-14 -33.333 -59.3301 -61.002 -135.997 -83.002c-62.667 -18 -118.334 -27 -167.001 -27c-70.667 0 -154.667 10 -252 30c-138.667 28.667 -221 44.667 -247 48c-140.667 0 -236 -45.333 -286 -136
c-36 -65.333 -54 -175.666 -54 -331v-1065c100.667 186.667 268.667 282 504 286c90 1.33301 177.333 -17.667 262 -57c72.667 -34 142.334 -90 209.001 -168c125.333 -147.333 188 -335.666 188 -564.999c0 -230 -56 -416 -168 -558c-122.667 -155.333 -296 -233 -520 -233
c-137.333 0 -257.333 32.833 -360 98.5s-183.334 159.834 -242.001 282.501c-57.333 120 -86 256.667 -86 410v1581c0 220 38 383.667 114 491c72 101.333 182.667 152 332 152c61.333 0 148.666 -11 261.999 -33c154.667 -30 258.667 -45 312 -45
c54.667 0 101 9.66699 139 29c63.333 32.667 101.666 49 114.999 49c40.667 0 65.667 -17.333 75 -52c4 -12.667 6 -47.334 6 -104z" />
    <glyph glyph-name="o" unicode="o" horiz-adv-x="2867" 
d="M1319 668c0 240 -36.6709 407.667 -110.004 503s-188.333 142 -345 140c-112 -1.33301 -213 -49.333 -303 -144c-94 -98.667 -141.667 -220 -143 -364c-1.33301 -148 54.667 -290 168 -426c125.333 -149.333 225 -256 299 -320l-140 -131
c-171.333 141.333 -299.666 276.666 -384.999 405.999c-87.333 132.667 -131 282.667 -131 450c0 136 30 259 90 369c62 114 145.333 201.333 250 262c108 62.667 229.667 94 365 94c226.667 0 393.334 -102.333 500.001 -307c108.667 204.667 276.334 307 503.001 307
c280 0 483.667 -117.333 611 -352c60 -110.667 90 -235 90 -373c0 -156 -56 -315.667 -168 -479l225 -225l-115 -139l-221 221c-90.667 -99.333 -169.667 -177.333 -237 -234l-131 140c159.333 142 274.333 263 345 363c71.333 102.667 106.333 227.334 105 374.001
c-1.33301 144 -49 265.333 -143 364c-90 94.667 -191 142.667 -303 144c-157.333 2 -273.166 -44.667 -347.499 -140s-111.5 -263 -111.5 -503v-226h-217v226z" />
    <glyph glyph-name="p" unicode="p" horiz-adv-x="2064" 
d="M791 2941c42 -4 68.999 -11 80.999 -21l127 -122c46 -42 109 -87.333 189 -136c36 -22 97.333 -56 184 -102c140.667 -74.667 239 -174.334 295 -299c35.333 -78 53 -169.333 53 -274c0 -220.667 -114.667 -395.667 -344 -525c306 -128 459 -373.667 459 -737
c0 -121.333 -24.667 -241.333 -74 -360c-122 -292.667 -376 -439 -762 -439c-339.333 0 -568.666 110.667 -687.999 332c-54.667 101.333 -82 212 -82 332c0 256.667 106.667 458.667 320 606l123 -106c-177.333 -122.667 -266 -280 -266 -472c0 -136 45 -258.667 135 -368
c88 -106.667 245 -160 471 -160c193.333 0 344.666 54.667 453.999 164s164 258 164 446c0 252.667 -73.667 430.334 -221 533.001c-141.333 98.667 -317.333 152 -528 160v151c160 0 293.333 26.333 400 79c140 69.333 210 175.666 210 318.999
c0 128 -27.333 226.667 -82 296c-43.333 55.333 -128 116.333 -254 183c-135.333 71.333 -226.666 128.666 -273.999 172c-53.333 48.667 -86.666 80.334 -99.999 95c-34.667 38.667 -57.334 78 -68.001 118c0 95.333 26 140.333 78 135z" />
    <glyph glyph-name="q" unicode="q" horiz-adv-x="1892" 
d="M655 98l54.001 -138.996c-112.667 -26 -206.334 -86.667 -281.001 -182c-72 -90.667 -113.667 -195.334 -125 -314.001c0 -166.667 43.667 -296.334 131 -389.001c70.667 -74.667 193.667 -126.334 369 -155.001c244 0 410.667 104 500 312c60 138 90 349.333 90 634
v1270l-500 -152c-30 -2 -68.333 -8.66699 -115 -20c-79.333 -22 -119 -72.667 -119 -152c0 -59.333 18 -123.666 54 -192.999c4 -6 18.667 -18 44 -36c22.667 -16 34 -25.667 34 -29c0 -44 -23.333 -66 -70 -66c-67.333 0 -124.666 40.667 -171.999 122
c-41.333 70.667 -62 142 -62 214c0 125.333 33 210 99 254c8.66699 6 77 28 205 66l602 180v1364l-660 -713l-188 66l758 827h303v-3174c0 -338.667 -86 -598 -258 -778c-112.667 -118 -279.334 -177 -500.001 -177c-124 0 -244.667 26.167 -362 78.5
s-208.5 127.666 -273.5 225.999s-97.5 218.166 -97.5 359.499c0 108 21.667 211.667 65 311c98.667 226.667 257 355 475 385z" />
    <glyph glyph-name="r" unicode="r" horiz-adv-x="2867" 
d="M1991 66c159.333 142 274.33 262.999 344.997 362.999c71.333 102.667 106.333 227.334 105 374.001c-1.33301 144 -49 265.333 -143 364c-90 94.667 -191 142.667 -303 144c-157.333 2 -273.166 -44.667 -347.499 -140s-111.5 -263 -111.5 -503v-226h-217v226
c0 316.667 -55.667 512 -167 586c-69.333 45.333 -159.666 69.666 -270.999 72.999c-144.667 4 -255.334 -52 -332.001 -168c-71.333 -108 -107 -229.333 -107 -364c0 -164 48 -303.333 144 -418c124.667 -148.667 224.334 -255.334 299.001 -320.001l-140 -131
c-344 278 -516 563.333 -516 856c0 104 19.333 202.333 58 295c56 134.667 178.667 290.334 368 467.001c109.333 102 175 165 197 189c257.333 278 411.666 656 462.999 1134h282c-21.333 -259.333 -93.666 -513.333 -216.999 -762
c-110.667 -222.667 -267.667 -426 -471 -610c280.667 0 455.667 -98.333 525 -295c108.667 204.667 276.334 307 503.001 307c280 0 483.667 -117.333 611 -352c60 -110.667 90 -235 90 -373c0 -217.333 -83.333 -419.333 -250 -606
c-72 -81.333 -160.667 -164.666 -266 -249.999z" />
    <glyph glyph-name="s" unicode="s" horiz-adv-x="1950" 
d="M1511 750c-14 42.667 -65.6689 125.671 -155.002 249.004c-136.667 188 -205 353.333 -205 496c11.333 54.667 45.333 82 102 82c8.66699 0 18.334 -2.66699 29.001 -8c33.333 -17.333 53.666 -35 60.999 -53c11.333 -43.333 21 -77.333 29 -102
s13.667 -41.334 17 -50.001c49.333 -94.667 83.333 -156 102 -184c8 -12.667 45 -64.667 111 -156c40 -56 70 -112 90 -168c21.333 -60.667 32 -140 32 -238c0 -161.333 -35.167 -293.333 -105.5 -396s-162.166 -178 -275.499 -226c-110 -46.667 -228.667 -70 -356 -70
c-288 0 -476.667 77.167 -566 231.5s-134 323.166 -134 506.499v2203h217v-2199c0 -172 17 -287.667 51 -347c18.667 -32.667 49.334 -71.334 92.001 -116.001c65.333 -68.667 180 -103 344 -103c154 0 274.333 34.333 361 103c83.333 66 138 149.333 164 250
c13.333 51.333 20 105.666 20 162.999c0 55.333 -8.33301 99.333 -25 132z" />
    <glyph glyph-name="t" unicode="t" horiz-adv-x="3211" 
d="M1368 1475c-117.333 128 -175.998 226.002 -175.998 294.002c0 107.333 34.167 201.833 102.5 283.5s172.166 122.5 311.499 122.5c138.667 0 242.167 -40.833 310.5 -122.5s102.5 -176.167 102.5 -283.5c0 -76 -56 -174 -168 -294
c139.333 -16.667 285.666 -60.667 438.999 -132c127.333 -59.333 244.666 -145.333 352 -258c226.667 -237.333 340 -560.666 340 -969.999c0 -270.667 -59 -511.334 -177 -722.001c-124.667 -222.667 -304.667 -390.334 -540 -503.001
c-211.333 -101.333 -431 -152 -659 -152c-242.667 0 -465.667 52 -669 156c-209.333 107.333 -378.333 260.333 -507 459c-134 207.333 -201 461.333 -201 762c0 202.667 31.667 388.5 95 557.5s146.333 306.667 249 413s221.5 192.166 356.5 257.499
s281.167 109.333 438.5 132zM1827 1188c44.667 -44 88.999 -108 132.999 -192c39.333 -75.333 59 -138.333 59 -189c0 -119.333 -39 -217.5 -117 -294.5s-176.667 -115.5 -296 -115.5s-217.666 39.667 -294.999 119c-79.333 81.333 -119 178.333 -119 291
c0 49.333 18.667 110.666 56 183.999c44 88 86.667 151 128 189l115 106c-112.667 -3.33301 -228.334 -28.333 -347.001 -75c-126 -49.333 -223.333 -100.666 -292 -153.999c-125.333 -97.333 -225 -228.333 -299 -393c-68 -151.333 -102 -342.666 -102 -573.999
c0 -224.667 53 -426.667 159 -606c214.667 -363.333 548 -545 1000 -545c216.667 0 410.834 46.667 582.501 140s310.667 228.833 417 406.5s159.5 379.167 159.5 604.5c0 209.333 -40 401.166 -120 575.499s-174 304.833 -282 391.5c-38 30.667 -97.667 65.667 -179 105
c-171.333 82.667 -327.333 126.667 -468 132zM1606 1499c155.333 80 233 189.333 233 328c0 64 -26 114.333 -78 151c-47.333 33.333 -100.333 50 -159 50c-77.333 0 -136.333 -18 -177 -54c-46 -40.667 -69 -89.667 -69 -147s23 -112 69 -164
c56.667 -79.333 117 -134 181 -164zM1606 1180c-82.667 -68 -140 -133.667 -172 -197c-46.667 -94 -70 -156.667 -70 -188c0 -68 23.333 -124 70 -168s102.667 -66 168 -66c163.333 0 245 78 245 234c0 158.667 -80.333 287 -241 385z" />
    <glyph glyph-name="u" unicode="u" horiz-adv-x="2949" 
d="M311 1167c0 205.333 39.6709 308.001 119.004 308.001c44 -4 66 -43.667 66 -119c0 -17.333 -1.5 -43.333 -4.5 -78s-4.5 -60.667 -4.5 -78c0 -84.667 1.66699 -148.667 5 -192c10 -131.333 57.667 -197 143 -197c57.333 6 92.666 14.333 105.999 25
c20 19.333 32.333 48 37 86c1.33301 28 4 70.333 8 127c27.333 305.333 177.666 458 450.999 458c169.333 0 306 -66.667 410 -200c117.333 133.333 271.333 200 462 200c194.667 0 346.334 -77.667 455 -233c65.333 -93.333 98 -219 98 -377v-1204
c0 -346 -114.667 -607 -344 -783c-149.333 -114.667 -365 -172 -647 -172c-287.333 0 -509.333 68 -666 204s-235 308.333 -235 517c0 341.333 180.333 554.333 541 639l53 -139c-274.667 -85.333 -411.334 -253.333 -410.001 -504
c0.666992 -75.333 21.667 -150.333 63 -225s92.666 -133.334 153.999 -176.001c107.333 -74.667 260.333 -115.667 459 -123c142.667 -5.33301 281.667 23 417 85c265.333 122 398 347.667 398 677v1204c0 148.667 -41 262 -123 340c-63.333 60 -135.666 90 -217 90
c-78 0 -154.333 -30 -229 -90c-87.333 -70 -131 -183.333 -131 -340v-356h-209v536c0 83.333 -29.333 150.666 -88 201.999c-56 48.667 -126.333 73 -211 73c-165.333 0 -252.666 -91.667 -261.999 -275c-13.333 -58 -24.333 -124.667 -33 -200
c-10.667 -92 -43.334 -155 -98.001 -189c-47.333 -29.333 -110.333 -43 -189 -41c-112.667 2.66699 -191.667 31.334 -237 86.001c-71.333 85.333 -107 230 -107 434z" />
    <glyph glyph-name="v" unicode="v" horiz-adv-x="1995" 
d="M442 582c-114.667 0 -172 82.999 -172 248.999c0 206.667 68.667 371 206 493s314.666 183 531.999 183c138.667 0 262.834 -23 372.501 -69s199.834 -119.667 270.501 -221c68 -98.667 102 -219 102 -361c0 -284 -124.333 -480.667 -373 -590
c265.333 -122.667 398 -345 398 -667c0 -424.667 -177.667 -696.667 -533 -816c-105.333 -35.333 -218.666 -53 -339.999 -53c-152.667 0 -292 31.333 -418 94c-141.333 70.667 -241 170.334 -299 299.001c-48.667 108 -73 220 -73 336c0 290.667 125.667 503.667 377 639
l106 -102c-165.333 -122 -263.666 -275 -294.999 -459c-5.33301 -31.333 -8 -54.333 -8 -69c0 -81.333 20.333 -161.333 61 -240c42 -83.333 94 -147 156 -191c105.333 -75.333 235 -114.666 389 -117.999c41.333 -0.666992 97.333 4.66602 168 15.999
c120 20 218 57.667 294 113c134.667 98.667 202 263 202 493c0 41.333 -1.33301 79.666 -4 114.999c-15.333 200 -90 337.667 -224 413c-102.667 58 -264.334 87 -485.001 87v217c128.667 0 239 18.333 331 55c88 34.667 155 79 201 133c84.667 100 127 208 127 324
c0 86 -31.333 167.667 -94 245c-76.667 94.667 -199.334 144 -368.001 148c-160.667 4 -297.334 -31.667 -410.001 -107c-61.333 -40.667 -102.333 -108.667 -123 -204l-26 -243c-8 -77.333 -24 -124.666 -48 -141.999z" />
    <glyph glyph-name="w" unicode="w" horiz-adv-x="2224" 
d="M1806 1434c-2.66699 -211.333 -17.668 -424.332 -45.001 -638.999c-26.667 -210 -67.667 -438 -123 -684c-111.333 -494.667 -268.333 -952.334 -471 -1373h-245l-762 3294c-30 130 -45 231 -45 303c0 239.333 81.667 414 245 524c81.333 54.667 182.666 82 303.999 82
c196 0 347.333 -88.667 454 -266c114.667 177.333 262.334 266 443.001 266c155.333 0 284 -44 386 -132c108 -92.667 162 -215.334 162 -368c0 -210 -103.667 -387.333 -311 -532l-127 131c86.667 75.333 142.334 130.333 167.001 165c42 60 63 133.333 63 220
c-9.33301 88.667 -43.666 164 -102.999 226c-62.667 64.667 -137.667 97 -225 97c-95.333 0 -169 -31.333 -221 -94c-71.333 -86 -107 -173.333 -107 -262v-446h-241v348c0 92.667 -12.333 163.667 -37 213c-76 152.667 -171.667 229 -287 229
c-102 0 -188.333 -36.667 -259 -110s-106 -161 -106 -263c0 -32 4.33301 -62 13 -90c3.33301 -18.667 8.66602 -46 15.999 -82l176 -757h1286zM568.999 1225l480 -2147h102c122 313.333 223.667 666.333 305 1059c82.667 396.667 129.667 760.667 141 1092z" />
    <glyph glyph-name="x" unicode="x" horiz-adv-x="1892" 
d="M987 102c148 0 261.333 60.333 340 181c82 126 123 268 123 426c0 160.667 -41.333 303.167 -124 427.5s-195.667 186.5 -339 186.5c-158 0 -274 -62.667 -348 -188c-87.333 -120.667 -131 -262.667 -131 -426c0 -150.667 43.667 -292.667 131 -426
c79.333 -120.667 195.333 -181 348 -181zM500 2867l-0.00195312 -1409l528 713h213l-553 -750c80 54.667 185.333 83.334 316 86.001c90 1.33301 177.333 -17.667 262 -57c72.667 -34 142.334 -90 209.001 -168c125.333 -147.333 188 -335.666 188 -564.999
c0 -230 -56 -416 -168 -558c-122.667 -155.333 -296 -233 -520 -233c-137.333 0 -257.666 33 -360.999 99c-100.667 64.667 -181 158.667 -241 282c-57.333 118.667 -86 255.334 -86 410.001v2150h213z" />
    <glyph glyph-name="y" unicode="y" horiz-adv-x="2122" 
d="M1622 1032c-144 -192 -325.001 -331.66 -543.001 -418.993c-100 -40 -192 -60 -276 -60c-155.333 0 -287.666 34 -396.999 102s-164 167.667 -164 299c0 92.667 23 181.667 69 267c107.333 199.333 235.666 299 384.999 299c49.333 0 74 -23.333 74 -70
c0 -12.667 -25.667 -39.334 -77 -80.001l-111 -92c-52.667 -45.333 -93.667 -91.666 -123 -138.999c-38.667 -62.667 -58 -117.334 -58 -164.001c0 -74.667 34.333 -133.334 103 -176.001c79.333 -49.333 164 -74 254 -74c125.333 0 236 24.667 332 74
c201.333 103.333 345.333 224 432 362c49.333 78 79 157 89 237l11 93h213v-1798c0 -346 -103.667 -607 -311 -783c-135.333 -114.667 -332 -172 -590 -172c-181.333 0 -330.666 26.167 -447.999 78.5s-208.5 127.666 -273.5 225.999s-97.5 218.166 -97.5 359.499
c0 108 21.667 211.667 65 311c98.667 226.667 257 355 475 385l54 -139c-112.667 -26 -206.334 -86.667 -281.001 -182c-72 -90.667 -113.667 -195.334 -125 -314.001c0 -166.667 43.667 -296.334 131 -389.001c70.667 -74.667 193.667 -126.334 369 -155.001
c432.667 0 688.334 124 767.001 372c34.667 109.333 52 243.333 52 402v1339z" />
    <glyph glyph-name="z" unicode="z" horiz-adv-x="2605" 
d="M680 1778c120 0 207.332 58.667 261.999 176c46.667 100 70 201 70 303c0 112 -23.333 215.667 -70 311c-57.333 117.333 -142 176 -254 176c-140.667 0 -237.667 -58.667 -291 -176c-48.667 -108 -73 -211.667 -73 -311c0 -102 24.333 -203 73 -303
c26.667 -54.667 63.334 -97 110.001 -127c49.333 -32.667 107 -49 173 -49zM1700 102c148 0 261.333 60.333 340 181c82 126 123 268 123 426c0 160.667 -41.333 303.167 -124 427.5s-195.667 186.5 -339 186.5c-158.667 0 -274.667 -62.667 -348 -188
c-87.333 -120.667 -131 -262.667 -131 -426c0 -150 43.667 -292 131 -426c78.667 -120.667 194.667 -181 348 -181zM1212 2286l0.000976562 -828.001l529 713h213l-553 -750c80 55.333 185 84 315 86c89.333 1.33301 176.666 -17.667 261.999 -57
c73.333 -34 143 -90 209 -168c126 -148.667 189 -337 189 -565c0 -230 -56 -416 -168 -558c-122.667 -155.333 -296 -233 -520 -233c-136.667 0 -256.667 32.833 -360 98.5s-184.333 159.834 -243 282.501c-57.333 120 -86 256.667 -86 410v979
c-87.333 -87.333 -187 -131 -299 -131c-102 0 -197.333 27.333 -286 82c-199.333 122.667 -299 324.667 -299 606c0 189.333 50 351.333 150 486s260 202 480 202c151.333 -14.667 263.333 -79 336 -193c87.333 -137.333 131 -291.333 131 -462z" />
    <glyph glyph-name="braceleft" unicode="{" horiz-adv-x="2048" 
d="M1696 2777h-74c-190.667 0 -317.334 -41 -380.001 -123c-52.667 -69.333 -79 -204.333 -79 -405v-484c0 -200.667 -19.667 -347 -59 -439c-56 -130.667 -166 -219 -330 -265c165.333 -50 275.333 -138.667 330 -266c39.333 -90 59 -236.333 59 -439v-483
c0 -215.333 31.333 -356 94 -422c64 -68 184.333 -102 361 -102h78v-176h-86c-265.333 0 -443.666 59.333 -534.999 178c-78 102 -117 292.333 -117 571v479c0 214 -38.167 363.167 -114.5 447.5s-210.166 126.5 -401.499 126.5c-10.667 0 -24.334 -1.33301 -41.001 -4h-49
v180c14 -2.66699 27.667 -4 41 -4h58c192 0 326.667 48.667 404 146c68.667 86 103 228.333 103 427v480c0 280 38.667 471.333 116 574c91.333 119.333 270 179 536 179h86v-176z" />
    <glyph glyph-name="bar" unicode="|" horiz-adv-x="2048" 
d="M1114 3129v-4096h-180v4096h180z" />
    <glyph glyph-name="braceright" unicode="}" horiz-adv-x="2048" 
d="M1090 2200l-0.000976562 -480c0 -201.333 35 -345 105 -431c78 -94.667 215 -142 411 -142h45c18.667 2.66699 33.667 4 45 4v-180h-45c-19.333 2.66699 -34.333 4 -45 4c-191.333 0 -325.166 -42.167 -401.499 -126.5s-114.5 -233.5 -114.5 -447.5v-479
c0 -302.667 -45.167 -503.167 -135.5 -601.5s-262.5 -147.5 -516.5 -147.5h-86v176h78c176.667 0 297 34 361 102c62.667 66 94 206.667 94 422v483c0 234 28.5 399 85.5 495s159.5 166 307.5 210c-166 46 -277 133.667 -333 263c-40 92 -60 239 -60 441v484
c0 200 -26.667 335 -80 405c-62.667 82 -189 123 -379 123h-74v176h86c254 0 426.167 -49.167 516.5 -147.5s135.5 -300.166 135.5 -605.5z" />
    <glyph glyph-name="asciitilde" unicode="~" horiz-adv-x="1966" 
d="M557 2355c22.667 -54 50.668 -88.332 84.001 -102.999c24 -10.667 69.667 -16 137 -16c46.667 -11.333 70 -60.333 70 -147c0 -85.333 -17.667 -155 -53 -209c-12.667 -36.667 -49.667 -68.334 -111 -95.001c-54 -24 -103 -36 -147 -36c-123.333 0 -196 73.667 -218 221
l-4 357c-1.33301 146.667 27.667 270.667 87 372c48.667 78 112.667 138 192 180c84.667 44.667 172 70.667 262 78v-151c-60 -14 -114 -38 -162 -72c-50.667 -36.667 -85.334 -75.667 -104.001 -117c-32.667 -72 -49 -132 -49 -180c0 -29.333 5.33301 -56.666 16 -82z
M1335 2355c22.667 -54 50.666 -88.332 83.999 -102.999c24 -10.667 69.667 -16 137 -16c46.667 -11.333 70 -60.333 70 -147s-17.667 -156.334 -53 -209.001c-13.333 -36.667 -50.333 -68.334 -111 -95.001c-53.333 -24 -102.333 -36 -147 -36
c-123.333 0 -195.666 73.667 -216.999 221l-4 357c-2 171.333 36 309 114 413c44 58.667 98.667 105 164 139c84.667 44.667 172 70.667 262 78v-151c-136 -33.333 -224.667 -96.333 -266 -189c-32.667 -73.333 -49 -133.333 -49 -180c0 -29.333 5.33301 -56.666 16 -81.999
z" />
    <glyph glyph-name=".null" horiz-adv-x="0" 
 />
    <glyph glyph-name="nonmarkingreturn" horiz-adv-x="1229" 
 />
    <glyph glyph-name="glyph4" horiz-adv-x="0" 
 />
    <glyph glyph-name="glyph5" horiz-adv-x="0" 
 />
  </font>
</defs>
</svg>
